&title=[宴] ココロ
&artist=トラボルタ
&wholebpm=140
&demo_seek=74.5
&demo_len=28.2
&lv_7=狂
&inote_7=(140.0){1},,,,,,,,,
{1}1,
{1}1,
{1}2,
{1}2,
{1}3,
{1}3,
{1}4,
{1}4,
{1}5,
{1}5,
{1}6,
{1}6,
{1}7,
{1}7,
{1}8,
{1}8,
{1}8h[1:1],,
{1}7h[1:1],,
{1}6h[1:1],,
{1}5h[1:1],,
{1}4h[1:1],,
{1}3h[1:1],,
{1}2h[1:1],,
{1}1h[1:1],,,,,
{1}1,
{1}2,
{1}3,
{1}4,
{1}5,
{1}6,
{1}7,
{1}8,
{1}8,
{1}7,
{1}6,
{1}5,
{1}4,
{1}3,
{1}2,
{1}1,
{1}1/8,
{1}1,
{1}2,
{1}3,
{1}4,
{1}5,
{1}6,
{1}7,
{1}8b,
{1}8-5[4:3],,
{1}4-1[4:3],,
{1}1-4[4:3],,
{1}5-8[4:3],,
{1}1-5[4:3],,
{1}5-8[4:3],,
{1}8-4[4:3],,
{1}4-1[4:3],,
E
